乐迷社区 和乐迷做兄弟 与乐迷共进步
乐迷社区»版 块 超级电视 乐视盒子 c1 v30固件 播放1080p视频出现严重卡顿
2013-5-7 20:41:42 17620 跳转到指定楼层
本人是C1用户刷的是v30版本固件,更新完之后本地视频增加了dts解码授权,播低分辨率低码率视频没有问题。但今天播放1080p高码率视频出现严重的卡顿现象,具体表现为几秒钟一停顿,声音也卡顿。完全无法观看视频。使用同AML8726-MX芯片厂商发的硬解版xbmc软件播放则无此问题(该软件先天不足在c1上会声画不同步。)由此断定应该不是c1硬件能力不足,是软件优化不到位。不知道大家是否也有此问题。

以下是视频信息。
Format : Matroska
    Format version : Version 2
    File size : 22.8 GiB
    Duration : 2h 56mn
    Overall bit rate : 18.5 Mbps
    Encoded date : UTC 2012-11-21 23:45:09
    Writing application : mkvmerge v3.3.0 ('Language') 编译于 Mar 24 2010 14:59:24
    Writing library : libebml v0.8.0 + libmatroska v0.9.0
  Video #1
    ID : 1
    Format : AVC
    Format/Info : Advanced Video Codec
    Format profile : High@L4.1
    Format settings, CABAC : Yes
    Format settings, ReFrames : 4 frames
    Codec ID : V_MPEG4/ISO/AVC
    Duration : 2h 56mn
    Bit rate : 17.0 Mbps
    Width : 1 920 pixels
    Height : 1 080 pixels
    Display aspect ratio : 16:9
    Frame rate : 23.976 fps
    Color space : YUV
    Chroma subsampling : 4:2:0
    Bit depth : 8 bits
    Scan type : Progressive
    Bits/(Pixel*Frame) : 0.342
    Stream size : 20.5 GiB (90%)

Audio #2
    ID : 2
    Format : DTS
    Format/Info : Digital Theater Systems
    Codec ID : A_DTS
    Duration : 2h 56mn
    Bit rate mode : Constant
    Bit rate : 1 510 Kbps
    Channel(s) : 6 channels
    Channel positions : Front: L C R, Side: L R, LFE
    Sampling rate : 48.0 KHz
    Bit depth : 24 bits
    Compression mode : Lossy
    Stream size : 1.86 GiB (8%)
    Title : Korean DTS-HDMA CORE 5.1CH @ 1509 kbps

您需要登录后才可以回帖 登录 | 立即注册

本版积分规则

快速回复 返回顶部 返回列表