乐迷社区 和乐迷做兄弟 与乐迷共进步
乐迷社区»版 块 超级电视 超级电视 北京试机问题,请官方解答
2013-10-26 20:20:29 8297 跳转到指定楼层
画质问题:
外设使用小米盒子,接HDMI
一开始竟然花屏,后来重启,重接线,终于可以用了,和以前Sharp LCD 40寸比,差距太明显了,主要是表现在高光控制,暗部细节,色彩的准确上。这个价钱当然还是很值得的,可以忍受吧

音频问题:
1. 杜比采样率PCM 48K,最高么?
2. 播放杜比格式的时候,同轴不工作,无输出?
3. 播放部分3D电影,DTS无声音,同轴也不工作?

客户体验:
1. 开机广告应该可以关掉,我买了你们letv的电视,也包括一年的服务费,为什么给我加广告,这是强迫的行为,你们不关,MD一开机就是那个,耍流氓!!!
2. 每次开机应该记住上一次退出状态,操作,切换也太难受了,特不方便
3. UI不流畅,卡,经常选择无回馈
4. 3D切换很傻,不会自己切换,也没有一键切换,SB似的,每次需要按好多次,二死了


这个是无声音的3D文件
3d.mkv
  General
    Unique ID : 224704134368807130833539767776677512856 (0xA90C712D8573B89DBBD4CBBF1EB4C698)
    Complete name : F:\3d.mkv
    Format : Matroska
    Format version : Version 2
    File size : 13.6 GiB
    Duration : 2h 6mn
    Overall bit rate : 15.4 Mbps
    Encoded date : UTC 2013-03-01 16:52:55
    Writing application : mkvmerge v5.8.0 ('No Sleep / Pillow') built on Sep  2 2012 15:37:04
    Writing library : libebml v1.2.3 + libmatroska v1.3.0
  Video #1
    ID : 1
    Format : AVC
    Format/Info : Advanced Video Codec
    Format profile : High@L4.1
    Format settings, CABAC : Yes
    Format settings, ReFrames : 2 frames
    Codec ID : V_MPEG4/ISO/AVC
    Duration : 2h 6mn
    Bit rate : 13.6 Mbps
    Width : 1 920 pixels
    Height : 1 080 pixels
    Display aspect ratio : 16:9
    Frame rate mode : Constant
    Frame rate : 23.976 fps
    Color space : YUV
    Chroma subsampling : 4:2:0
    Bit depth : 8 bits
    Scan type : Progressive
    Bits/(Pixel*Frame) : 0.273
    Stream size : 12.0 GiB (88%)
    Writing library : x264 core
    Language : English
    Default : Yes
    Forced : No
    Color primaries : BT.709
    Transfer characteristics : BT.709
    Matrix coefficients : BT.709
  Audio #2
    ID : 2
    Format : DTS
    Format/Info : Digital Theater Systems
    Format profile : ES
    Mode : 16
    Format settings, Endianness : Big
    Codec ID : A_DTS
    Duration : 2h 6mn
    Bit rate mode : Constant
    Bit rate : 1 509 Kbps
    Channel count : 6 channels
    Channel positions : Front: L C R, Side: L R, LFE
    Sampling rate : 48.0 KHz
    Bit depth : 24 bits
    Compression mode : Lossy
    Stream size : 1.34 GiB (10%)
    Language : English
    Default : Yes
    Forced : No


 楼主| 2013-10-27 08:43:32
出来解释下吧
 楼主| 2013-10-27 08:46:55
发现帖子发完以后在论坛上就不见了,难道是过滤掉了,很奇怪!!
2013-10-27 09:00:39
是50还是40的!!!!!!!!!!!!!!!!!!
 楼主| 2013-10-27 09:22:21
S50的问题
 楼主| 2013-11-9 21:05:12
顶一下,顺便骂下不解决问题的工程师
 楼主| 2013-11-9 21:12:34
昨天升级到v60版本,问题仍然存在,而且越升级越慢了,卡
 楼主| 2014-1-15 16:33:25
提问题根本没人解决,找些拖来在坛子里面搅和,系统越来越慢了
您需要登录后才可以回帖 登录 | 立即注册

本版积分规则

快速回复 返回顶部 返回列表