乐迷社区 和乐迷做兄弟 与乐迷共进步
乐迷社区»版 块 超级电视 超级电视 【4K视频】超刺激4K漂移赛车视频、现场赛车烧胎直冒烟 ...
2014-3-18 20:31:55 9123 跳转到指定楼层

1.jpg

2.jpg


G:\4K下载\[4K] 赛车视频.mp4
     Format : MPEG-4
     Format profile : Base Media / Version 2
     Codec ID : mp42
     File size : 687 MiB
     Duration : 3mn 16s
     Overall bit rate mode : Variable
     Overall bit rate : 29.4 Mbps

    gsst : 0
     gstd : 196603
     gssd : B4A7D0303HM1376860916022260
     gshh : r11---sn-q4f7dnlr.c.youtube.com
   Video #1
     ID : 1
     Format : AVC
     Format/Info : Advanced Video Codec
     Format profile : High@L5.1
     Format settings, CABAC : No
     Format settings, ReFrames : 1 frame
     Codec ID : avc1
     Codec ID/Info : Advanced Video Coding
     Duration : 3mn 16s
     Bit rate : 29.2 Mbps
     Maximum bit rate : 48.0 Mbps
     Width : 4 096 pixels
     Height : 2 160 pixels
     Display aspect ratio : 1.896
     Frame rate mode : Variable
     Frame rate : 23.976 fps
     Minimum frame rate : 16.000 fps
     Maximum frame rate : 24.000 fps
     Color space : YUV
     Chroma subsampling : 4:2:0
     Bit depth : 8 bits
     Scan type : Progressive
     Bits/(Pixel*Frame) : 0.137
     Stream size : 683 MiB (99%)
   
   Audio #2
     ID : 2
     Format : AAC
     Format/Info : Advanced Audio Codec
     Format profile : LC
     Codec ID : 40
     Duration : 3mn 16s
     Bit rate mode : Variable
     Bit rate : 192 Kbps
     Maximum bit rate : 202 Kbps
     Channel count : 2 channels
     Channel positions : Front: L R
     Sampling rate : 44.1 KHz
     Compression mode : Lossy
     Stream size : 4.50 MiB (1%)

4K !一个严重考验硬件配置的超高清格式!

截图只是冰山一角,得自己去欣赏!

百度盘预览图,画质已经被压缩,请以本帖描述为准!



下载地址:

http://pan.baidu.com/s/1mgoIIQ8
2014-7-22 06:08:11
阿萨斯2131
2014-7-30 14:54:36
谢谢打什么
2014-8-6 19:46:16
v型出这种天赋和天赋预提费用tft一房一厅发圆通
您需要登录后才可以回帖 登录 | 立即注册

本版积分规则

快速回复 返回顶部 返回列表