乐迷社区 和乐迷做兄弟 与乐迷共进步
乐迷社区»版 块 超级电视 超级电视 [4K里约热内卢(世界新七大奇迹之一)仿佛去了人间仙境] ...
2014-3-18 21:16:00 5462 跳转到指定楼层


里约热内卢(葡萄牙语:Rio de Janeiro,意即“一月的河”),有时简称为里约,位于巴西东南部,在1960年以前为巴西首都,东南濒临大西洋,海岸线长636公里。里约热内卢属于热带干湿季气候,终年高温,一年中有明显的干季与雨季。

市境内的里约热内卢港是世界三大天然良港之一,里约热内卢基督像是该市的标志,也是世界新七大奇迹之一。
里约热内卢州不仅是巴西乃至南美的重要门户,同时也是巴西及南美经济最发达的地区之一,素以巴西重要交通枢纽和信息通讯、旅游、文化、金融和保险中心而闻名。里约州是巴西第二大工业基地。

里约热内卢也是巴西第二大城市,又被称为巴西的第二首都,著名的国际大都市。是全国最大进口港、全国经济中心,同时也是全国重要的交通中心。背山面水,港湾优良。



1.jpg

2.jpg

3.jpg




C:\Users\sky\Desktop\[4K] 里约热内卢.mp4
   General
     Complete name : C:\Users\sky\Desktop\[4K] 里约热内卢.mp4
     Format : MPEG-4
     Format profile : Base Media
     Codec ID : isom
     File size : 673 MiB
     Duration : 5mn 1s
     Overall bit rate : 18.7 Mbps
     Writing application : Lavf55.12.100
   Video #1
     ID : 1
     Format : AVC
     Format/Info : Advanced Video Codec
     Format profile : High@L5.1
     Format settings, CABAC : No
     Format settings, ReFrames : 2 frames
     Codec ID : avc1
     Codec ID/Info : Advanced Video Coding
     Duration : 5mn 1s
     Bit rate : 18.6 Mbps
     Width : 3 840 pixels
     Height : 2 160 pixels
     Display aspect ratio : 16:9
     Frame rate mode : Constant
     Frame rate : 29.970 fps
     Color space : YUV
     Chroma subsampling : 4:2:0
     Bit depth : 8 bits
     Scan type : Progressive
     Bits/(Pixel*Frame) : 0.075
     Stream size : 669 MiB (99%)
   Audio #2
     ID : 2
     Format : AAC
     Format/Info : Advanced Audio Codec
     Format profile : LC
     Codec ID : 40
     Duration : 5mn 1s
     Bit rate mode : Constant
     Bit rate : 126 Kbps
     Channel count : 2 channels
     Channel positions : Front: L R
     Sampling rate : 44.1 KHz
     Compression mode : Lossy
     Stream size : 4.52 MiB (1%)



4K !一个严重考验硬件配置的超高清格式!


截图只是冰山一角,得自己去欣赏!





百度盘下载:

链接: http://pan.baidu.com/s/1jGE5vLG 密码: rcdt
2014-6-6 23:40:45
;P;P;P;P;P
2014-7-6 20:26:06
感谢楼主分享!!!!!
您需要登录后才可以回帖 登录 | 立即注册

本版积分规则

快速回复 返回顶部 返回列表