乐迷社区 和乐迷做兄弟 与乐迷共进步
乐迷社区»版 块 超级电视 超级电视 传奇4K-冰岛之旅,震撼自然风光演示片
2014-3-25 10:54:05 8686 跳转到指定楼层

1.jpg

2.jpg



G:\传奇4K-冰岛之旅.mp4
   General
     Complete name : G:\传奇4K-冰岛之旅.mp4
     Format : MPEG-4
     Format profile : Base Media / Version 2
     Codec ID : mp42
     File size : 1.03 GiB
     Duration : 6mn 7s
     Overall bit rate mode : Variable
     Overall bit rate : 24.1 Mbps
     Encoded date : UTC 2012-08-23 11:48:33
     Tagged date : UTC 2012-08-23 11:48:33
     gsst : 0
     gstd : 367501
     gssd : B4A7D0642HH1369754731844274
     gshh : r8---sn-5uaeznek.c.youtube.com
   Video #1
     ID : 1
     Format : AVC
     Format/Info : Advanced Video Codec
     Format profile : High@L5.1
     Format settings, CABAC : No
     Format settings, ReFrames : 1 frame
     Format settings, GOP : M=1, N=48
     Codec ID : avc1
     Codec ID/Info : Advanced Video Coding
     Duration : 6mn 7s
     Bit rate : 23.9 Mbps
     Maximum bit rate : 61.8 Mbps
     Width : 4 096 pixels
     Height : 2 304 pixels
     Display aspect ratio : 16:9
     Frame rate mode : Constant
     Frame rate : 24.000 fps
     Color space : YUV
     Chroma subsampling : 4:2:0
     Bit depth : 8 bits
     Scan type : Progressive
     Bits/(Pixel*Frame) : 0.106
     Stream size : 1.02 GiB (99%)
     Tagged date : UTC 2012-08-23 11:49:32
   Audio #2
     ID : 2
     Format : AAC
     Format/Info : Advanced Audio Codec
     Format profile : LC
     Codec ID : 40
     Duration : 6mn 7s
     Bit rate mode : Variable
     Bit rate : 192 Kbps
     Maximum bit rate : 201 Kbps
     Channel(s) : 2 channels
     Channel positions : Front: L R
     Sampling rate : 44.1 KHz
     Compression mode : Lossy
     Stream size : 8.41 MiB (1%)

快传下载:

http://kuai.xunlei.com/dan/uctRAAIDVQCFb6VR357
2014-5-8 16:46:34
好东西,收藏
2014-5-9 17:31:03
好东西,收藏
2014-6-23 01:08:48
也一样一样快**看
2014-6-23 03:29:43
好美,很好,向往的地方,十分清晰,
2014-6-23 08:43:55
看看看看
2014-7-6 20:24:55
感谢楼主分享!!!
您需要登录后才可以回帖 登录 | 立即注册

本版积分规则

快速回复 返回顶部 返回列表