乐迷社区 和乐迷做兄弟 与乐迷共进步
乐迷社区»版 块 超级电视 超级电视 松下LUMIX GH4最强4K拍片单反
2014-3-25 13:01:35 8501 跳转到指定楼层

1.jpg

2.jpg

3.jpg


D:\[4K] ルミックスGH4.mp4
   General
     Format : MPEG-4
     Format profile : Base Media
     Codec ID : isom
     File size : 373 MiB
     Duration : 3mn 7s
     Overall bit rate : 16.7 Mbps
     Writing application : Lavf55.12.100
   Video #1
     ID : 1
     Format : AVC
     Format/Info : Advanced Video Codec
     Format profile : High@L5.1
     Format settings, CABAC : No
     Format settings, ReFrames : 3 frames
     Codec ID : avc1
     Codec ID/Info : Advanced Video Coding
     Duration : 3mn 7s
     Bit rate : 16.6 Mbps
     Width : 3 840 pixels
     Height : 2 160 pixels
     Display aspect ratio : 16:9
     Frame rate mode : Constant
     Frame rate : 29.970 fps
     Color space : YUV
     Chroma subsampling : 4:2:0
     Bit depth : 8 bits
     Scan type : Progressive
     Bits/(Pixel*Frame) : 0.067
     Stream size : 370 MiB (99%)
   Audio #2
     ID : 2
     Format : AAC
     Format/Info : Advanced Audio Codec
     Format profile : LC
     Codec ID : 40
     Duration : 3mn 7s
     Bit rate mode : Constant
     Bit rate : 126 Kbps
     Channel count : 2 channels
     Channel positions : Front: L R
     Sampling rate : 44.1 KHz
     Compression mode : Lossy
     Stream size : 2.80 MiB (1%)

4K !一个严重考验硬件配置的超高清格式!

截图只是冰山一角,得自己去欣赏!


百度盘预览图,画质已经被压缩,请以本帖描述为准!

下载地址:

链接: http://pan.baidu.com/s/1mg9b9yS  
密码: ssqc
2014-5-21 10:46:12
kankanyakankan
您需要登录后才可以回帖 登录 | 立即注册

本版积分规则

快速回复 返回顶部 返回列表