乐迷社区 和乐迷做兄弟 与乐迷共进步
乐迷社区»版 块 超级电视 超级电视 [稀有资源]全球首发4K动画
2014-3-27 12:27:58 15747 跳转到指定楼层

1.jpg

2.jpg



G:\[4K] 花色ヘプタグラム .mp4
  General
    Complete name : G:\[4K] 花色ヘプタグラム .mp4
    Format : MPEG-4
    Format profile : Base Media / Version 2
    Codec ID : mp42
    File size : 386 MiB
    Duration : 1mn 52s
    Overall bit rate mode : Variable
    Overall bit rate : 28.8 Mbps

    gsst : 0
    gstd : 112640
    gssd : BADC23BE2HH1372572646200981
    gshh : r8---sn-3pm7enel.c.youtube.com
  Video #1
    ID : 1
    Format : AVC
    Format/Info : Advanced Video Codec
    Format profile : High@L5.1
    Format settings, CABAC : No
    Format settings, ReFrames : 1 frame
    Codec ID : avc1
    Codec ID/Info : Advanced Video Coding
    Duration : 1mn 52s
    Bit rate : 28.6 Mbps
    Maximum bit rate : 48.3 Mbps
    Width : 3 840 pixels
    Height : 2 160 pixels
    Display aspect ratio : 16:9
    Frame rate mode : Constant
    Frame rate : 30.000 fps
    Color space : YUV
    Chroma subsampling : 4:2:0
    Bit depth : 8 bits
    Scan type : Progressive
    Bits/(Pixel*Frame) : 0.115
    Stream size : 383 MiB (99%)
   
  Audio #2
    ID : 2
    Format : AAC
    Format/Info : Advanced Audio Codec
    Format profile : LC
    Codec ID : 40
    Duration : 1mn 52s
    Bit rate mode : Variable
    Bit rate : 192 Kbps
    Maximum bit rate : 202 Kbps
    Channel(s) : 2 channels
    Channel positions : Front: L R
    Sampling rate : 44.1 KHz
    Compression mode : Lossy
    Stream size : 2.57 MiB (1%)


下载地址:
链接: http://pan.baidu.com/s/1kTG5ioZ密码:
jhcu

2014-4-19 21:22:38
好像色彩不错啊
2014-6-9 02:46:38
2014-7-5 22:41:52
看看先~~
2014-7-6 16:37:20
看紧试试·
2014-7-16 04:27:58
反反复复反反复复吩咐
2014-7-16 10:32:44
谢谢分享
2014-8-19 23:38:34
cxvzxcvxvxcvzxvzxvzcxvzx
您需要登录后才可以回帖 登录 | 立即注册

本版积分规则

快速回复 返回顶部 返回列表