乐迷社区 和乐迷做兄弟 与乐迷共进步
乐迷社区»版 块 超级电视 超级电视 松下85Mbps试机片精选!高端神物你懂得![1080P/85Mbps/ ...
2014-3-31 05:11:05 650129 跳转到指定楼层
总共是:《暗流涌动》、《高画质演示锦集》、《日本式的食物- 2008 ver.》和《色彩表现力测试》四个变态的测试片子(不是掩饰片!),对机子有一定的要求。并且画质流弊!这个只是小小的开胃菜!以后所有的松下演示片85Mbps版本会全部发上来!这次的文件一共7.17GB!
213003jlwd8crastjjmsrt.jpg 213015jqmuhlcalw66wfj6.jpg 213023p9vw8ttz9yl23vym.jpg 2130096v3zzkhmv8t668ed.jpg
J:\Panasonic DEMO\High.quality.collection.m2ts
  General #1
    ID : 1 (0x1)
    Format : BDAV
    Format/Info : Blu-ray Video
    File size : 1.92 GiB
    Duration : 3mn 13s
    Overall bit rate : 85.3 Mbps
  Video #4113
    ID : 4113 (0x1011)
    Menu ID : 1 (0x1)
    Format : MPEG Video
    Format version : Version 2
    Format profile : Main@High
    Format settings, BVOP : Yes
    Format settings, Matrix : Custom
    Codec ID : 2
    Duration : 3mn 13s
    Bit rate : 80.0 Mbps
    Width : 1 920 pixels
    Height : 1 080 pixels
    Display aspect ratio : 16:9
    Frame rate : 29.970 fps
    Standard : Component
    Color space : YUV
    Chroma subsampling : 4:2:0
    Bit depth : 8 bits
    Scan type : Interlaced
    Scan order : Top Field First
    Compression mode : Lossy
    Bits/(Pixel*Frame) : 1.287
    Stream size : 1.81 GiB (94%)
    Color primaries : BT.709
    Transfer characteristics : BT.709
    Matrix coefficients : BT.709
  Audio #4352
    ID : 4352 (0x1100)
    Menu ID : 1 (0x1)
    Format : DTS
    Format/Info : Digital Theater Systems
    Codec ID : 130
    Duration : 3mn 13s
    Bit rate mode : Constant
    Bit rate : 1 510 Kbps
    Channel(s) : 6 channels
    Channel positions : Front: L C R, Side: L R, LFE
    Sampling rate : 48.0 KHz
    Bit depth : 16 bits
    Compression mode : Lossy
    Stream size : 34.8 MiB (2%)

百度下载:
《暗流涌动》 密码:znio
《高画质演示锦集》 密码:ep93
《日本式的食物- 2008 ver.》 密码:tx7i
色彩表现力测试》 密码:4e98
2014-3-31 15:01:42
Panasonic, General, 松下, 表现力, 色彩
2014-3-31 20:48:45
Panasonic, General, 松下, 表现力, 色彩
2014-4-9 14:48:49
DDDDD,谢谢
2014-4-12 17:02:47
高端神物你懂得
2014-4-14 21:04:35
测试片有好处,来一个
2014-4-15 21:19:11
测试片有好处,来一个
2014-4-25 18:06:44
好收下
2014-6-23 16:24:49
哈哈,需要看看
2014-6-23 16:27:21
Panasonic, General, 松下, 表现力, 色彩
2014-6-26 01:28:11
dddddddddddddddddddd
2014-6-29 01:19:12
我喜欢,希望我的电视剧能享受到。
2014-6-29 17:30:45
E: 松下85Mbps试机片精选!高端神物你懂得![1080P/85Mbps/7.17GB] [修改]
高级模式
2014-7-9 09:00:03
啦啦啦啦啦啦啦
2014-7-10 18:34:26
试机片精选
您需要登录后才可以回帖 登录 | 立即注册

本版积分规则

快速回复 返回顶部 返回列表