乐迷社区 和乐迷做兄弟 与乐迷共进步
乐迷社区»版 块 超级电视 超级电视 关于网络传输速率问题
2014-8-3 12:52:30 6161 跳转到指定楼层
通过局域网(有线连接)看电脑上的视频,码率比较高的视频根本无法观看,卡得比动画片还动画。通过反复试验,码率在10M左右的有缓冲,但能正常观看,再高就比较卡了。如果达到30M,则根本无法观看。但我用另台电脑通过局域网看电视无法观看的视频,则完全正常,没有任何卡顿现象。
电视型号为X50 AIR

下面这是一部无法正常通过局域网观看的视频参数:
Complete name : J:\3D\少女时代(1080p真3D电影.Samsung+3D播放教程)\KRMTV.SNSD-Genie(1080p真3D电影.Samsung).mkv
    Format : Matroska
    Format version : Version 2
    File size : 928 MiB
    Duration : 3mn 40s
    Overall bit rate : 35.3 Mbps
    Encoded date : UTC 2010-12-09 14:21:53
    Writing application : mkvmerge v4.0.0 ('The Stars were mine') built on Jun  6 2010 16:18:42
    Writing library : libebml v1.0.0 + libmatroska v1.0.0
  Video #1
    ID : 1
    Format : MPEG Video
    Format version : Version 2
    Format profile : Main@High
    Format settings, BVOP : No
    Format settings, Matrix : Default
    Codec ID : V_MPEG2
    Codec ID/Info : MPEG 1 or 2 Video
    Duration : 3mn 40s
    Bit rate : 34.3 Mbps
    Maximum bit rate : 35.0 Mbps
    Width : 1 920 pixels
    Height : 1 080 pixels
    Display aspect ratio : 16:9
    Frame rate : 23.976 fps
    Color space : YUV
    Chroma subsampling : 4:2:0
    Bit depth : 8 bits
    Scan type : Progressive
    Compression mode : Lossy
    Bits/(Pixel*Frame) : 0.690
    Stream size : 902 MiB (97%)
  Audio #2
    ID : 2
    Format : AC-3
    Format/Info : Audio Coding 3
    Mode extension : CM (complete main)
    Codec ID : A_AC3
    Duration : 3mn 40s
    Bit rate mode : Constant
    Bit rate : 320 Kbps
    Channel(s) : 2 channels
    Channel positions : Front: L R
    Sampling rate : 48.0 KHz
    Bit depth : 16 bits
    Compression mode : Lossy
    Delay relative to video : -83ms
    Stream size : 8.41 MiB (1%)
    Language : Korean
2014-8-5 11:50:27
楼主将你的问题前往产品反馈提交,可以和工程师直接交流并且处理
点击链接提交问题即可反馈问题给工程师http://bbs.letv.com/forum.php?mo ... wthread&fid=118
您需要登录后才可以回帖 登录 | 立即注册

本版积分规则

快速回复 返回顶部 返回列表